<?xml version="1.0" standalone="no"?>
<!DOCTYPE svg PUBLIC "-//W3C//DTD SVG 1.1//EN" "http://www.w3.org/Graphics/SVG/1.1/DTD/svg11.dtd" >
<svg xmlns="http://www.w3.org/2000/svg" xmlns:xlink="http://www.w3.org/1999/xlink" version="1.1">
<metadata>
Created by FontForge 20190801 at Sun May 10 23:32:04 2020
 By Unknown
Copyright (c) 2020 by Charles Forman. All rights reserved.
</metadata>
<defs>
<font id="THICCCBOI-SemiBold" horiz-adv-x="600" >
  <font-face 
    font-family="THICCCBOI Light"
    font-weight="600"
    font-stretch="normal"
    units-per-em="1000"
    panose-1="0 0 7 0 0 0 0 0 0 0"
    ascent="800"
    descent="-200"
    x-height="500"
    cap-height="700"
    bbox="-593 -334 1558 790"
    underline-thickness="50"
    underline-position="-100"
    unicode-range="U+0020-FB02"
  />
<missing-glyph horiz-adv-x="493" 
d="M422 -90h-351v842h351v-842zM390 -60v782h-288v-782h288z" />
    <glyph glyph-name="fi" unicode="fi" horiz-adv-x="576" 
d="M336 611q-27 3 -48 3q-37 0 -53.5 -15t-16.5 -55v-44h117v-95h-117v-405h-105v405h-88v95h88v51q0 91 36.5 126.5t112.5 35.5q29 0 74 -5v-97zM414.5 615.5q-17.5 16.5 -17.5 45.5t17.5 45.5t47.5 16.5t47.5 -16.5t17.5 -45.5t-17.5 -45.5t-47.5 -16.5t-47.5 16.5zM409 0
v500h105v-500h-105z" />
    <glyph glyph-name="fl" unicode="fl" horiz-adv-x="632" 
d="M336 611q-27 3 -48 3q-37 0 -53.5 -15t-16.5 -55v-44h117v-95h-117v-405h-105v405h-88v95h88v51q0 91 36.5 126.5t112.5 35.5q29 0 74 -5v-97zM546.5 100.5q7.5 -6.5 24.5 -6.5q13 0 31 3v-97q-44 -6 -62 -6q-51 0 -78.5 27t-27.5 96v583h105v-576q0 -17 7.5 -23.5z" />
    <glyph glyph-name=".notdef" horiz-adv-x="493" 
d="M422 -90h-351v842h351v-842zM390 -60v782h-288v-782h288z" />
    <glyph glyph-name="space" unicode=" " horiz-adv-x="257" 
 />
    <glyph glyph-name="A" unicode="A" horiz-adv-x="664" 
d="M654 0h-119l-57 151h-291l-57 -151h-120l262 700h120zM333 541l-107 -285h213z" />
    <glyph glyph-name="Aacute" unicode="&#xc1;" 
 />
    <glyph glyph-name="Acircumflex" unicode="&#xc2;" 
 />
    <glyph glyph-name="Adieresis" unicode="&#xc4;" 
 />
    <glyph glyph-name="Agrave" unicode="&#xc0;" 
 />
    <glyph glyph-name="Aring" unicode="&#xc5;" 
 />
    <glyph glyph-name="Atilde" unicode="&#xc3;" 
 />
    <glyph glyph-name="AE" unicode="&#xc6;" 
 />
    <glyph glyph-name="B" unicode="B" horiz-adv-x="616" 
d="M562.5 299q21.5 -43 21.5 -92q0 -56 -27 -103t-73 -75t-100 -28h-198v-1h-111v700h294q51 0 94 -26t68.5 -70.5t25.5 -95.5q0 -38 -14.5 -74t-39.5 -64q38 -28 59.5 -71zM186 594v-184l183 1q34 0 60 27.5t26 65.5t-25.5 64t-60.5 26h-183zM384 107q39 0 66.5 30t27.5 71
t-27.5 71t-66.5 30h-198v-202h198z" />
    <glyph glyph-name="C" unicode="C" horiz-adv-x="751" 
d="M88.5 529q48.5 83 131.5 131.5t181 48.5q101 0 185.5 -50.5t130.5 -135.5l-97 -53q-33 58 -91.5 93t-127.5 35q-68 0 -125.5 -33.5t-91 -91t-33.5 -125.5t33.5 -125.5t91 -91t125.5 -33.5q70 0 128.5 35.5t90.5 94.5l98 -53q-46 -85 -131 -136.5t-186 -51.5
q-98 0 -181 48.5t-131.5 131.5t-48.5 181t48.5 181z" />
    <glyph glyph-name="Ccedilla" unicode="&#xc7;" 
 />
    <glyph glyph-name="D" unicode="D" horiz-adv-x="741" 
d="M522.5 653.5q82.5 -46.5 130.5 -127t48 -178.5t-48 -177.5t-130.5 -125t-180.5 -45.5h-267v700h267q98 0 180.5 -46.5zM342 105q68 0 125 32t90 88t33 124t-33 124.5t-90 89t-125 32.5h-156v-490h156z" />
    <glyph glyph-name="Eth" unicode="&#xd0;" 
 />
    <glyph glyph-name="E" unicode="E" horiz-adv-x="527" 
d="M186 302v-197h303v-105h-414v700h409v-105h-298v-188h273v-105h-273z" />
    <glyph glyph-name="Eacute" unicode="&#xc9;" 
 />
    <glyph glyph-name="Ecircumflex" unicode="&#xca;" 
 />
    <glyph glyph-name="Edieresis" unicode="&#xcb;" 
 />
    <glyph glyph-name="Egrave" unicode="&#xc8;" 
 />
    <glyph glyph-name="F" unicode="F" horiz-adv-x="525" 
d="M484 700v-105h-298v-197h286v-105h-286v-293h-111v700h409z" />
    <glyph glyph-name="G" unicode="G" horiz-adv-x="790" 
d="M380 359h372v-52q0 -86 -47 -159.5t-127.5 -117t-176.5 -43.5q-98 0 -181 48.5t-131.5 131.5t-48.5 181t48.5 181t131.5 131.5t181 48.5q92 0 171 -43.5t128 -116.5l-88 -67q-34 53 -90 84.5t-121 31.5q-68 0 -125.5 -33.5t-91 -91t-33.5 -125.5t33.5 -125.5t91 -91
t125.5 -33.5q85 0 147.5 43t82.5 113h-251v105z" />
    <glyph glyph-name="H" unicode="H" horiz-adv-x="716" 
d="M530 411v289h111v-700h-111v306h-344v-306h-111v700h111v-289h344z" />
    <glyph glyph-name="I" unicode="I" horiz-adv-x="261" 
d="M75 0v700h111v-700h-111z" />
    <glyph glyph-name="Iacute" unicode="&#xcd;" 
 />
    <glyph glyph-name="Icircumflex" unicode="&#xce;" 
 />
    <glyph glyph-name="Idieresis" unicode="&#xcf;" 
 />
    <glyph glyph-name="Igrave" unicode="&#xcc;" 
 />
    <glyph glyph-name="J" unicode="J" horiz-adv-x="569" 
d="M391 700h111v-484q0 -67 -30.5 -119t-85 -81t-125.5 -29q-78 0 -134.5 32.5t-88.5 94.5l90 53q26 -43 56.5 -61t80.5 -18q59 0 92.5 32.5t33.5 95.5v484z" />
    <glyph glyph-name="K" unicode="K" horiz-adv-x="642" 
d="M637 1l-139 -1l-241 296l-71 -79v-217h-111v700h111v-316l288 316h143l-286 -320z" />
    <glyph glyph-name="L" unicode="L" horiz-adv-x="511" 
d="M186 700v-595h307v-105h-418v700h111z" />
    <glyph glyph-name="Lslash" unicode="&#x141;" 
 />
    <glyph glyph-name="M" unicode="M" horiz-adv-x="818" 
d="M632 698v2h111v-700h-111v499l-209 -351h-28l-209 353v-502h-111v701h111v-2l4 2l219 -369l219 369z" />
    <glyph glyph-name="N" unicode="N" horiz-adv-x="685" 
d="M499 219v481h111v-700h-95l-329 509v-509h-111v700h111v-1l1 1z" />
    <glyph glyph-name="Ntilde" unicode="&#xd1;" 
 />
    <glyph glyph-name="O" unicode="O" horiz-adv-x="802" 
d="M220 35.5q-83 48.5 -131.5 131.5t-48.5 181t48.5 181t131.5 131.5t181 48.5t181 -48.5t131.5 -131.5t48.5 -181t-48.5 -181t-131.5 -131.5t-181 -48.5t-181 48.5zM526.5 131.5q57.5 33.5 91 91t33.5 125.5t-33.5 125.5t-91 91t-125.5 33.5t-125.5 -33.5t-91 -91
t-33.5 -125.5t33.5 -125.5t91 -91t125.5 -33.5t125.5 33.5z" />
    <glyph glyph-name="Oacute" unicode="&#xd3;" 
 />
    <glyph glyph-name="Ocircumflex" unicode="&#xd4;" 
 />
    <glyph glyph-name="Odieresis" unicode="&#xd6;" 
 />
    <glyph glyph-name="Ograve" unicode="&#xd2;" 
 />
    <glyph glyph-name="Oslash" unicode="&#xd8;" 
 />
    <glyph glyph-name="Otilde" unicode="&#xd5;" 
 />
    <glyph glyph-name="OE" unicode="&#x152;" 
 />
    <glyph glyph-name="P" unicode="P" horiz-adv-x="580" 
d="M435.5 670q51.5 -30 82 -81.5t30.5 -112.5t-30.5 -113t-82 -82t-112.5 -30h-137v-251h-111v700h248q61 0 112.5 -30zM323 357q49 0 84 35t35 84t-35 83.5t-84 34.5h-137v-237h137z" />
    <glyph glyph-name="Thorn" unicode="&#xde;" 
 />
    <glyph glyph-name="Q" unicode="Q" horiz-adv-x="817" 
d="M740 223.5q-22 -59.5 -63 -107.5l72 -72l-78 -79l-78 78q-86 -56 -192 -56q-98 0 -181 48.5t-131.5 131.5t-48.5 181t48.5 181t131.5 131.5t181 48.5t181 -48.5t131.5 -131.5t48.5 -181q0 -65 -22 -124.5zM512 124l-90 90l79 79l98 -98q52 68 52 153q0 68 -33.5 125.5
t-91 91t-125.5 33.5t-125.5 -33.5t-91 -91t-33.5 -125.5t33.5 -125.5t91 -91t125.5 -33.5q61 0 111 26z" />
    <glyph glyph-name="R" unicode="R" horiz-adv-x="629" 
d="M482 0l-142 251h-154v-251h-111v700h278q61 0 112.5 -30t82 -81.5t30.5 -112.5q0 -65 -34 -119t-90 -82l155 -275h-127zM186 594v-237h167q49 0 84 35t35 84t-35 83.5t-84 34.5h-167z" />
    <glyph glyph-name="S" unicode="S" horiz-adv-x="581" 
d="M132.5 33q-69.5 46 -97.5 124l95 55q20 -55 64 -85.5t112 -30.5q64 0 97.5 30.5t33.5 70.5q0 39 -37 63t-122 49q-68 21 -112.5 43t-73 61t-28.5 99q0 61 30.5 106.5t81.5 70t112 24.5q84 0 146 -41t94 -112l-95 -54q-42 97 -145 97q-51 0 -82 -26.5t-31 -63.5
q0 -28 15 -45.5t44.5 -31t85.5 -31.5q72 -22 119 -45.5t78 -64.5t31 -104q0 -61 -31.5 -107.5t-87 -71.5t-126.5 -25q-101 0 -170.5 46z" />
    <glyph glyph-name="Scaron" unicode="&#x160;" 
 />
    <glyph glyph-name="T" unicode="T" horiz-adv-x="546" 
d="M528 700v-105h-200v-595h-111v595h-199v105h510z" />
    <glyph glyph-name="U" unicode="U" horiz-adv-x="664" 
d="M485 700h111v-463q0 -73 -34 -130t-94.5 -88.5t-136.5 -31.5t-136 31.5t-93.5 88.5t-33.5 130v463h111v-463q0 -63 42.5 -101t109.5 -38q71 0 112.5 37.5t41.5 101.5v463z" />
    <glyph glyph-name="Uacute" unicode="&#xda;" 
 />
    <glyph glyph-name="Ucircumflex" unicode="&#xdb;" 
 />
    <glyph glyph-name="Udieresis" unicode="&#xdc;" 
 />
    <glyph glyph-name="Ugrave" unicode="&#xd9;" 
 />
    <glyph glyph-name="V" unicode="V" horiz-adv-x="636" 
d="M318 154l193 546h118l-249 -700h-124l-248 700h117z" />
    <glyph glyph-name="W" unicode="W" horiz-adv-x="986" 
d="M706 172l143 528h114l-194 -700h-121l-155 512l-155 -512h-121l-194 700h114l143 -528l155 528h116z" />
    <glyph glyph-name="X" unicode="X" horiz-adv-x="650" 
d="M402 353l228 -353h-133l-172 267l-172 -267h-133l228 353l-225 347h133l169 -262l169 262h133z" />
    <glyph glyph-name="Y" unicode="Y" horiz-adv-x="628" 
d="M497 700h126l-253 -441v-259h-111v257l-254 443h126l183 -316z" />
    <glyph glyph-name="Yacute" unicode="&#xdd;" 
 />
    <glyph glyph-name="Ydieresis" unicode="&#x178;" 
 />
    <glyph glyph-name="Z" unicode="Z" horiz-adv-x="532" 
d="M498 617l-321 -512h325v-105h-462v84l320 511h-316v105h454v-83z" />
    <glyph glyph-name="Zcaron" unicode="&#x17d;" 
 />
    <glyph glyph-name="a" unicode="a" horiz-adv-x="642" 
d="M469 500h105v-500h-105v61q-35 -35 -80.5 -54.5t-94.5 -19.5q-75 0 -132 34.5t-88.5 94t-31.5 133.5t31.5 134t88.5 94.5t132 34.5q49 0 94.5 -19.5t80.5 -54.5v62zM388.5 109q37.5 21 59 58t21.5 83t-21.5 82.5t-59 57t-82.5 20.5t-81.5 -20.5t-57 -57.5t-20.5 -83
t20.5 -83t57 -57.5t81.5 -20.5t82.5 21z" />
    <glyph glyph-name="aacute" unicode="&#xe1;" 
 />
    <glyph glyph-name="acircumflex" unicode="&#xe2;" 
 />
    <glyph glyph-name="adieresis" unicode="&#xe4;" 
 />
    <glyph glyph-name="agrave" unicode="&#xe0;" 
 />
    <glyph glyph-name="aring" unicode="&#xe5;" 
 />
    <glyph glyph-name="atilde" unicode="&#xe3;" 
 />
    <glyph glyph-name="ae" unicode="&#xe6;" 
 />
    <glyph glyph-name="b" unicode="b" horiz-adv-x="657" 
d="M488 477.5q57 -34.5 88.5 -94.5t31.5 -134t-31.5 -133.5t-88.5 -94t-132 -34.5q-52 0 -100 22t-83 60v-69h-105v700h105v-271q35 39 83 61t100 22q75 0 132 -34.5zM425.5 108.5q36.5 20.5 57 57.5t20.5 83t-20.5 83t-57 57.5t-81.5 20.5t-82.5 -20.5t-59 -57t-21.5 -82.5
t21.5 -83t59 -58t82.5 -21t81.5 20.5z" />
    <glyph glyph-name="c" unicode="c" horiz-adv-x="536" 
d="M513 97q-36 -51 -92 -80.5t-121 -29.5q-71 0 -131.5 35.5t-95.5 96t-35 131.5t35 131t95.5 95.5t131.5 35.5q64 0 119.5 -29t92.5 -80l-86 -58q-24 30 -56.5 46t-69.5 16q-43 0 -79 -21t-57 -57t-21 -79t21 -79t57 -57.5t79 -21.5q37 0 69.5 16.5t56.5 45.5z" />
    <glyph glyph-name="ccedilla" unicode="&#xe7;" 
 />
    <glyph glyph-name="d" unicode="d" horiz-adv-x="641" 
d="M469 700h105v-700h-105v61q-35 -35 -80.5 -54.5t-94.5 -19.5q-75 0 -132 34.5t-88.5 94t-31.5 133.5t31.5 134t88.5 94.5t132 34.5q49 0 94.5 -19.5t80.5 -54.5v262zM388.5 109q37.5 21 59 58t21.5 83t-21.5 82.5t-59 57t-82.5 20.5t-81.5 -20.5t-57 -57.5t-20.5 -83
t20.5 -83t57 -57.5t81.5 -20.5t82.5 21z" />
    <glyph glyph-name="eth" unicode="&#xf0;" 
 />
    <glyph glyph-name="e" unicode="e" horiz-adv-x="586" 
d="M430 477.5q57 -35.5 89 -96t32 -132.5q0 -12 -4 -38h-404q13 -60 56.5 -96t110.5 -36q41 0 78.5 18t55.5 47l82 -48q-34 -52 -90 -80.5t-128 -28.5q-80 0 -141.5 34t-95 94t-33.5 135q0 74 33.5 134t93 94.5t135.5 34.5q73 0 130 -35.5zM451 294q-8 59 -48.5 93
t-102.5 34q-43 0 -79 -17.5t-57 -47t-22 -62.5h309z" />
    <glyph glyph-name="eacute" unicode="&#xe9;" 
 />
    <glyph glyph-name="ecircumflex" unicode="&#xea;" 
 />
    <glyph glyph-name="edieresis" unicode="&#xeb;" 
 />
    <glyph glyph-name="egrave" unicode="&#xe8;" 
 />
    <glyph glyph-name="f" unicode="f" horiz-adv-x="336" 
d="M336 611q-27 3 -48 3q-37 0 -53.5 -15t-16.5 -55v-44h117v-95h-117v-405h-105v405h-88v95h88v51q0 91 36.5 126.5t112.5 35.5q29 0 74 -5v-97z" />
    <glyph glyph-name="g" unicode="g" horiz-adv-x="644" 
d="M471 500h105v-475q0 -71 -35 -125t-96.5 -83.5t-138.5 -29.5q-87 0 -155.5 33t-97.5 88l90 52q16 -32 59.5 -54t106.5 -22q71 0 116.5 39t45.5 102v35q-35 -34 -80.5 -53.5t-94.5 -19.5q-75 0 -132 34.5t-88.5 94t-31.5 133.5t31.5 134t88.5 94.5t132 34.5
q49 0 94.5 -19.5t80.5 -54.5v62zM391 109q37 21 58.5 58t21.5 83t-21.5 82.5t-58.5 57t-82 20.5t-81.5 -20.5t-57.5 -57.5t-21 -83t21 -83t57.5 -57.5t81.5 -20.5t82 21z" />
    <glyph glyph-name="h" unicode="h" horiz-adv-x="566" 
d="M508 0h-105v297q0 64 -35.5 92t-83.5 28q-37 0 -68.5 -22t-42.5 -70v-325h-105v700h105v-248q27 27 61 42.5t73 15.5q44 0 89.5 -18.5t78.5 -65.5t33 -127v-299z" />
    <glyph glyph-name="i" unicode="i" horiz-adv-x="235" 
d="M73.5 615.5q-17.5 16.5 -17.5 45.5t17.5 45.5t47.5 16.5t47.5 -16.5t17.5 -45.5t-17.5 -45.5t-47.5 -16.5t-47.5 16.5zM68 0v500h105v-500h-105z" />
    <glyph glyph-name="dotlessi" unicode="&#x131;" 
 />
    <glyph glyph-name="iacute" unicode="&#xed;" 
 />
    <glyph glyph-name="icircumflex" unicode="&#xee;" 
 />
    <glyph glyph-name="idieresis" unicode="&#xef;" 
 />
    <glyph glyph-name="igrave" unicode="&#xec;" 
 />
    <glyph glyph-name="j" unicode="j" horiz-adv-x="264" 
d="M98.5 606.5q-17.5 16.5 -17.5 45.5t17.5 46t47.5 17t47.5 -17t17.5 -46t-17.5 -45.5t-47.5 -16.5t-47.5 16.5zM93 500h105v-529q0 -92 -58.5 -142t-154.5 -42v101q8 -1 23 -1q44 0 64.5 20.5t20.5 63.5v529z" />
    <glyph glyph-name="k" unicode="k" horiz-adv-x="549" 
d="M537 0h-132l-153 199l-79 -86v-113h-105v700h105v-433l210 233h146l-205 -223z" />
    <glyph glyph-name="l" unicode="l" horiz-adv-x="266" 
d="M180.5 100.5q7.5 -6.5 24.5 -6.5q13 0 31 3v-97q-44 -6 -62 -6q-51 0 -78.5 27t-27.5 96v583h105v-576q0 -17 7.5 -23.5z" />
    <glyph glyph-name="lslash" unicode="&#x142;" 
 />
    <glyph glyph-name="m" unicode="m" horiz-adv-x="900" 
d="M732.5 494.5q45.5 -18.5 78.5 -66.5t33 -129v-299h-105v299q0 64 -36 92.5t-84 28.5q-39 0 -70.5 -23.5t-41.5 -76.5q1 -6 1 -21v-299h-105v299q0 65 -35.5 93t-83.5 28q-37 0 -68.5 -22t-42.5 -70v-328h-105v500h105v-45q27 27 61 42.5t73 15.5q48 0 96.5 -21.5
t76.5 -71.5q25 39 68.5 66t94.5 27q44 0 89.5 -18.5z" />
    <glyph glyph-name="n" unicode="n" horiz-adv-x="569" 
d="M401.5 494.5q45.5 -18.5 78.5 -66.5t33 -129v-299h-105v299q0 64 -36 92.5t-84 28.5q-47 0 -81 -33t-34 -107v-280h-105v500h105v-50q27 28 62.5 45.5t76.5 17.5q44 0 89.5 -18.5z" />
    <glyph glyph-name="ntilde" unicode="&#xf1;" 
 />
    <glyph glyph-name="o" unicode="o" 
d="M168.5 22.5q-60.5 35.5 -95.5 96t-35 131.5t35 131t95.5 95.5t131.5 35.5t131.5 -35.5t95.5 -95.5t35 -131t-35 -131.5t-95.5 -96t-131.5 -35.5t-131.5 35.5zM379 113.5q36 21.5 57 57.5t21 79t-21 79t-57 57t-79 21t-79 -21t-57.5 -57t-21.5 -79t21.5 -79t57.5 -57.5
t79 -21.5t79 21.5z" />
    <glyph glyph-name="oacute" unicode="&#xf3;" 
 />
    <glyph glyph-name="ocircumflex" unicode="&#xf4;" 
 />
    <glyph glyph-name="odieresis" unicode="&#xf6;" 
 />
    <glyph glyph-name="ograve" unicode="&#xf2;" 
 />
    <glyph glyph-name="oslash" unicode="&#xf8;" 
 />
    <glyph glyph-name="otilde" unicode="&#xf5;" 
 />
    <glyph glyph-name="oe" unicode="&#x153;" 
 />
    <glyph glyph-name="p" unicode="p" horiz-adv-x="641" 
d="M480 478q57 -34 88.5 -94t31.5 -134t-31.5 -134t-88.5 -94.5t-132 -34.5q-49 0 -94.5 19.5t-80.5 54.5v-261h-105v700h105v-61q35 34 80.5 53.5t94.5 19.5q75 0 132 -34zM416.5 110q36.5 21 57.5 57.5t21 82.5t-21 83t-57.5 58t-81.5 21t-82 -21t-58.5 -58.5t-21.5 -83.5
t21.5 -82.5t58.5 -57t82 -20.5t81.5 21z" />
    <glyph glyph-name="thorn" unicode="&#xfe;" 
 />
    <glyph glyph-name="q" unicode="q" horiz-adv-x="641" 
d="M469 500h105v-700h-105v261q-35 -35 -80.5 -54.5t-94.5 -19.5q-75 0 -132 34.5t-88.5 94.5t-31.5 134t31.5 134t88.5 94t132 34q49 0 94.5 -19.5t80.5 -54.5v62zM388.5 109.5q37.5 20.5 59 57t21.5 82.5t-21.5 83.5t-59 58.5t-82.5 21t-81.5 -21t-57 -58t-20.5 -83
t20.5 -82.5t57 -57.5t81.5 -21t82.5 20.5z" />
    <glyph glyph-name="r" unicode="r" horiz-adv-x="368" 
d="M348 510l-8 -100q-11 3 -21 3q-62 0 -104 -37.5t-42 -105.5v-270h-105v500h105v-85q17 40 58.5 68t99.5 28q11 0 17 -1z" />
    <glyph glyph-name="s" unicode="s" horiz-adv-x="488" 
d="M181.5 325.5q25.5 -11.5 82.5 -25.5q58 -13 96 -27.5t65.5 -45.5t27.5 -84q0 -48 -28 -83.5t-75.5 -54t-104.5 -18.5q-77 0 -132 30.5t-80 85.5l86 45q15 -38 47.5 -56.5t78.5 -18.5q43 0 74.5 18t31.5 51q0 29 -28.5 42.5t-89.5 28.5q-59 15 -94.5 28.5t-61.5 42
t-26 75.5q0 46 26 81t70 54t98 19q64 0 114.5 -27.5t77.5 -76.5l-86 -43q-28 61 -106 61q-41 0 -65 -17.5t-24 -47.5q0 -25 25.5 -36.5z" />
    <glyph glyph-name="scaron" unicode="&#x161;" 
 />
    <glyph glyph-name="germandbls" unicode="&#xdf;" 
 />
    <glyph glyph-name="t" unicode="t" horiz-adv-x="391" 
d="M244.5 109q16.5 -15 53.5 -15q21 0 48 3v-97q-45 -5 -76 -5q-75 0 -111 35.5t-36 126.5v248h-103v95h103v130l105 36v-166h116v-95h-116v-241q0 -40 16.5 -55z" />
    <glyph glyph-name="u" unicode="u" horiz-adv-x="565" 
d="M393 500h105v-500h-105v50q-27 -28 -62.5 -45.5t-76.5 -17.5q-44 0 -89.5 18.5t-78.5 66.5t-33 129v299h105v-299q0 -64 35.5 -92t83.5 -28q47 0 81.5 33t34.5 107v279z" />
    <glyph glyph-name="uacute" unicode="&#xfa;" 
 />
    <glyph glyph-name="ucircumflex" unicode="&#xfb;" 
 />
    <glyph glyph-name="udieresis" unicode="&#xfc;" 
 />
    <glyph glyph-name="ugrave" unicode="&#xf9;" 
 />
    <glyph glyph-name="v" unicode="v" horiz-adv-x="527" 
d="M264 124l144 376h112l-192 -500h-129l-191 500h111z" />
    <glyph glyph-name="w" unicode="w" horiz-adv-x="777" 
d="M543 163l104 337h111l-162 -500h-106l-105 330l-104 -330h-104l-158 500h110l100 -336l100 336h112z" />
    <glyph glyph-name="x" unicode="x" horiz-adv-x="524" 
d="M382 500h129l-184 -250l184 -250l-129 -1l-120 163l-120 -163l-129 1l184 250l-184 250h129l120 -163z" />
    <glyph glyph-name="y" unicode="y" horiz-adv-x="525" 
d="M407 500h111l-183 -510q-38 -97 -103 -147t-151 -43v101q5 -1 15 -1q88 0 136 113l-224 487h113l161 -347z" />
    <glyph glyph-name="yacute" unicode="&#xfd;" 
 />
    <glyph glyph-name="ydieresis" unicode="&#xff;" 
 />
    <glyph glyph-name="z" unicode="z" horiz-adv-x="488" 
d="M438 432l-243 -332h253v-100h-400v68l246 332h-236v100h380v-68z" />
    <glyph glyph-name="zcaron" unicode="&#x17e;" 
 />
    <glyph glyph-name="s.alt" horiz-adv-x="471" 
d="M180 318.5q27 -13.5 85 -28.5q55 -14 89.5 -27.5t59 -42.5t24.5 -77t-26.5 -83.5t-71.5 -54t-100 -18.5q-74 0 -126.5 30.5t-75.5 85.5l80 45q14 -38 46 -56.5t76 -18.5q41 0 70 19t29 52q0 29 -27.5 43.5t-85.5 28.5q-54 14 -88 28t-58.5 42t-24.5 73q0 46 24.5 81
t66.5 54t94 19q61 0 109 -27.5t74 -76.5l-80 -43q-28 61 -103 61q-40 0 -63.5 -17.5t-23.5 -47.5t27 -43.5z" />
    <glyph glyph-name="ordfeminine" unicode="&#xaa;" horiz-adv-x="642" 
d="M469 500h105v-500h-105v61q-35 -35 -80.5 -54.5t-94.5 -19.5q-75 0 -132 34.5t-88.5 94t-31.5 133.5t31.5 134t88.5 94.5t132 34.5q49 0 94.5 -19.5t80.5 -54.5v62zM388.5 109q37.5 21 59 58t21.5 83t-21.5 82.5t-59 57t-82.5 20.5t-81.5 -20.5t-57 -57.5t-20.5 -83
t20.5 -83t57 -57.5t81.5 -20.5t82.5 21z" />
    <glyph glyph-name="ordmasculine" unicode="&#xba;" 
d="M168.5 22.5q-60.5 35.5 -95.5 96t-35 131.5t35 131t95.5 95.5t131.5 35.5t131.5 -35.5t95.5 -95.5t35 -131t-35 -131.5t-95.5 -96t-131.5 -35.5t-131.5 35.5zM379 113.5q36 21.5 57 57.5t21 79t-21 79t-57 57t-79 21t-79 -21t-57.5 -57t-21.5 -79t21.5 -79t57.5 -57.5
t79 -21.5t79 21.5z" />
    <glyph glyph-name="zero" unicode="0" horiz-adv-x="595" 
d="M149 32.5q-63 45.5 -96 127.5t-33 190t33 190t96 127.5t149 45.5t148.5 -45.5t96 -127.5t33.5 -190t-33.5 -190t-96 -127.5t-148.5 -45.5t-149 45.5zM420 162.5q45 63.5 45 187.5q0 125 -44.5 188.5t-122.5 63.5t-122.5 -63.5t-44.5 -188.5q0 -124 44.5 -187.5
t122.5 -63.5q77 0 122 63.5z" />
    <glyph glyph-name="one" unicode="1" horiz-adv-x="595" 
d="M361 700v-595h197v-105h-520v105h212v478l-121 -65l-57 87l178 94v1h111z" />
    <glyph glyph-name="two" unicode="2" horiz-adv-x="595" 
d="M556 106v-105h-511v28q8 97 60 188t152 133q22 10 33 14q52 23 80.5 38.5t48 38.5t19.5 55q0 37 -20 63t-51 39.5t-61 13.5q-64 0 -110.5 -26.5t-55.5 -79.5l-105 11q9 61 48 105.5t97.5 67.5t125.5 23q60 0 115 -25.5t89 -73.5t34 -113q0 -66 -31 -109t-80.5 -70.5
t-133.5 -61.5q-88 -37 -125 -154h382z" />
    <glyph glyph-name="three" unicode="3" horiz-adv-x="595" 
d="M521 301q25 -44 25 -96q0 -61 -33.5 -110.5t-91.5 -77.5t-129 -28q-64 0 -119 24.5t-89.5 67t-39.5 96.5l115 9q11 -40 48.5 -66t84.5 -26q62 0 103 32.5t41 82.5q0 51 -41 84t-103 33h-36l1 91h35q55 0 90.5 27.5t35.5 70.5q0 42 -36 70t-91 28q-39 0 -73 -19.5
t-48 -48.5l-110 7q8 46 40.5 82.5t82.5 57t108 20.5q68 0 121.5 -25.5t83.5 -70.5t30 -101q0 -43 -19.5 -79.5t-54.5 -62.5q44 -28 69 -72z" />
    <glyph glyph-name="four" unicode="4" horiz-adv-x="595" 
d="M486 250h80v-105h-80v-145h-111v145h-351v105l228 450h123l-227 -450h227v168h111v-168z" />
    <glyph glyph-name="five" unicode="5" horiz-adv-x="595" 
d="M299 430q115 0 181.5 -55t66.5 -149q0 -110 -66.5 -173.5t-181.5 -63.5q-109 0 -177 49.5t-77 135.5l106 12q12 -43 51.5 -67.5t96.5 -24.5q67 0 105.5 35.5t38.5 96.5q0 50 -38.5 79.5t-105.5 29.5h-147v1l-76 -1l47 365h400v-105h-308l-21 -165h105z" />
    <glyph glyph-name="six" unicode="6" horiz-adv-x="595" 
d="M428.5 448.5q59.5 -32.5 93.5 -88.5t34 -126t-34 -126t-93.5 -88t-134.5 -32q-74 0 -134 32t-93.5 88t-33.5 126q0 69 32 124q8 14 10 16l205 326h128l-139 -220q8 1 25 1q75 0 134.5 -32.5zM369.5 116q33.5 18 53 49t19.5 69t-19.5 70t-53.5 50t-75 18t-74.5 -18
t-53 -49.5t-19.5 -70.5q0 -59 42.5 -97.5t104.5 -38.5q42 0 75.5 18z" />
    <glyph glyph-name="seven" unicode="7" horiz-adv-x="595" 
d="M44 595v105h509v-81l-277 -619h-121l265 595h-376z" />
    <glyph glyph-name="eight" unicode="8" horiz-adv-x="595" 
d="M551 201q0 -99 -67.5 -156.5t-185.5 -57.5t-186 57.5t-68 156.5q0 116 96 166q-78 45 -78 146q0 93 63 146.5t173 53.5t173 -53.5t63 -146.5q0 -101 -78 -146q95 -50 95 -166zM204 585.5q-34 -26.5 -34 -72.5t34 -72.5t94 -26.5q59 0 93.5 26.5t34.5 72.5t-34.5 72.5
t-93.5 26.5q-60 0 -94 -26.5zM406 122q40 31 40 86q0 54 -40 83.5t-108 29.5t-108.5 -29.5t-40.5 -83.5q0 -55 40.5 -86t108.5 -31t108 31z" />
    <glyph glyph-name="nine" unicode="9" horiz-adv-x="595" 
d="M520 338l-213 -338h-128l139 220q-8 -1 -25 -1q-75 0 -134.5 32.5t-93.5 88.5t-34 126q0 71 34 127t93.5 88t134.5 32t134.5 -32t93 -88t33.5 -127t-34 -128zM164.5 396.5q19.5 -31.5 53.5 -49.5t75 -18q63 0 105 39t42 98q0 60 -42.5 98.5t-104.5 38.5q-64 0 -106 -39
t-42 -98q0 -38 19.5 -69.5z" />
    <glyph glyph-name="uni00B9" unicode="&#xb9;" horiz-adv-x="595" 
d="M361 700v-595h197v-105h-520v105h212v478l-121 -65l-57 87l178 94v1h111z" />
    <glyph glyph-name="uni00B2" unicode="&#xb2;" horiz-adv-x="595" 
d="M556 106v-105h-511v28q8 97 60 188t152 133q22 10 33 14q52 23 80.5 38.5t48 38.5t19.5 55q0 37 -20 63t-51 39.5t-61 13.5q-64 0 -110.5 -26.5t-55.5 -79.5l-105 11q9 61 48 105.5t97.5 67.5t125.5 23q60 0 115 -25.5t89 -73.5t34 -113q0 -66 -31 -109t-80.5 -70.5
t-133.5 -61.5q-88 -37 -125 -154h382z" />
    <glyph glyph-name="uni00B3" unicode="&#xb3;" horiz-adv-x="595" 
d="M521 301q25 -44 25 -96q0 -61 -33.5 -110.5t-91.5 -77.5t-129 -28q-64 0 -119 24.5t-89.5 67t-39.5 96.5l115 9q11 -40 48.5 -66t84.5 -26q62 0 103 32.5t41 82.5q0 51 -41 84t-103 33h-36l1 91h35q55 0 90.5 27.5t35.5 70.5q0 42 -36 70t-91 28q-39 0 -73 -19.5
t-48 -48.5l-110 7q8 46 40.5 82.5t82.5 57t108 20.5q68 0 121.5 -25.5t83.5 -70.5t30 -101q0 -43 -19.5 -79.5t-54.5 -62.5q44 -28 69 -72z" />
    <glyph glyph-name="period" unicode="." horiz-adv-x="247" 
d="M80 91.5q15 15.5 43 15.5t43 -15.5t15 -43.5q0 -29 -15 -44.5t-43 -15.5t-43 15.5t-15 44.5q0 28 15 43.5z" />
    <glyph glyph-name="comma" unicode="," horiz-adv-x="245" 
d="M105 -9q-28 7 -37 19.5t-9 44.5q0 31 16.5 47.5t47.5 16.5q30 0 47.5 -18t17.5 -49q-1 -34 -9.5 -57.5t-31.5 -58.5l-45 -63l-36 30z" />
    <glyph glyph-name="colon" unicode=":" horiz-adv-x="245" 
d="M75.5 472.5q16.5 16.5 47.5 16.5q30 0 46.5 -16.5t16.5 -47.5t-16.5 -48t-46.5 -17q-31 0 -47.5 17t-16.5 48t16.5 47.5zM75.5 102.5q16.5 16.5 47.5 16.5q30 0 46.5 -16.5t16.5 -47.5t-16.5 -48t-46.5 -17q-31 0 -47.5 17t-16.5 48t16.5 47.5z" />
    <glyph glyph-name="semicolon" unicode=";" horiz-adv-x="245" 
d="M75.5 472.5q16.5 16.5 47.5 16.5q30 0 46.5 -16.5t16.5 -47.5t-16.5 -48t-46.5 -17q-31 0 -47.5 17t-16.5 48t16.5 47.5zM105 -9q-28 7 -37 19.5t-9 44.5q0 31 16.5 47.5t47.5 16.5q30 0 47.5 -18t17.5 -49q-1 -34 -9.5 -57.5t-31.5 -58.5l-45 -63l-36 30z" />
    <glyph glyph-name="ellipsis" unicode="&#x2026;" horiz-adv-x="735" 
d="M80.5 102.5q16.5 16.5 47.5 16.5q30 0 46.5 -16.5t16.5 -47.5t-16.5 -48t-46.5 -17q-31 0 -47.5 17t-16.5 48t16.5 47.5zM320.5 102.5q16.5 16.5 47.5 16.5q30 0 46.5 -16.5t16.5 -47.5t-16.5 -48t-46.5 -17q-31 0 -47.5 17t-16.5 48t16.5 47.5zM560.5 102.5
q16.5 16.5 47.5 16.5q30 0 46.5 -16.5t16.5 -47.5t-16.5 -48t-46.5 -17q-31 0 -47.5 17t-16.5 48t16.5 47.5z" />
    <glyph glyph-name="exclam" unicode="!" horiz-adv-x="257" 
d="M176 205h-91l-19 495h128zM82.5 102.5q16.5 16.5 47.5 16.5q30 0 46.5 -16.5t16.5 -47.5t-16.5 -48t-46.5 -17q-31 0 -47.5 17t-16.5 48t16.5 47.5z" />
    <glyph glyph-name="exclamdown" unicode="&#xa1;" horiz-adv-x="244" 
d="M77 476q17 17 47 17q31 0 47 -16.5t16 -48.5q0 -31 -16 -47.5t-47 -16.5t-47.5 16.5t-16.5 47.5t17 48zM58 -178l19 463h91l18 -463h-128z" />
    <glyph glyph-name="question" unicode="?" horiz-adv-x="459" 
d="M171 202v115q0 44 21 72t61 60q32 26 47 44t15 44q0 31 -25 51.5t-70 20.5q-85 0 -139 -70l-68 75q40 49 96.5 74t121.5 25q61 0 107 -20t71 -55.5t25 -81.5q0 -38 -13.5 -66.5t-32 -47.5t-49.5 -44q-35 -28 -50.5 -46.5t-15.5 -45.5v-104h-102zM175 102.5
q17 16.5 47 16.5q31 0 47 -16.5t16 -47.5q0 -32 -16 -48.5t-47 -16.5t-47.5 17t-16.5 48t17 47.5z" />
    <glyph glyph-name="questiondown" unicode="&#xbf;" horiz-adv-x="459" 
d="M299 506v-124h-122v124h122zM288 303v-79q0 -44 -21 -72t-61 -60q-32 -25 -47 -43t-15 -44q0 -32 24.5 -52.5t70.5 -20.5q85 0 139 71l68 -76q-40 -49 -96.5 -74t-121.5 -25q-61 0 -107 20t-71 55.5t-25 81.5q0 38 13.5 67t32.5 48t49 43q34 27 50 46.5t16 45.5v68h102z
" />
    <glyph glyph-name="periodcentered" unicode="&#xb7;" horiz-adv-x="246" 
d="M63 181v124h122v-124h-122z" />
    <glyph glyph-name="bullet" unicode="&#x2022;" horiz-adv-x="358" 
d="M260.5 162q-33.5 -33 -80.5 -33t-80.5 33.5t-33.5 79.5q0 47 33.5 80.5t80.5 33.5t80.5 -33.5t33.5 -80.5t-33.5 -80z" />
    <glyph glyph-name="asterisk" unicode="*" horiz-adv-x="347" 
d="M29 476l99 51l-99 51l28 48l94 -61l-5 112h55l-5 -112l94 61l28 -48l-100 -51l100 -51l-28 -48l-94 60l5 -112h-55l5 112l-94 -60z" />
    <glyph glyph-name="numbersign" unicode="#" horiz-adv-x="607" 
d="M322 0h-80l59 175h-102l-58 -175h-80l59 175h-101l22 69h102l60 179h-102l21 69h104l58 175h80l-58 -175h101l58 175h80l-59 -175h102l-20 -69h-104l-61 -179h106l-22 -69h-107zM323 244l61 179h-101l-60 -179h100z" />
    <glyph glyph-name="slash" unicode="/" horiz-adv-x="315" 
d="M237 687h78l-237 -707h-78z" />
    <glyph glyph-name="backslash" unicode="\" horiz-adv-x="315" 
d="M237 -20l-237 707h78l237 -707h-78z" />
    <glyph glyph-name="colon.alt" horiz-adv-x="245" 
d="M75.5 544q16.5 17 47.5 17q30 0 46.5 -17t16.5 -48t-16.5 -47.5t-46.5 -16.5q-31 0 -47.5 16.5t-16.5 47.5t16.5 48zM75.5 174q16.5 17 47.5 17q30 0 46.5 -17t16.5 -48t-16.5 -47.5t-46.5 -16.5q-31 0 -47.5 16.5t-16.5 47.5t16.5 48z" />
    <glyph glyph-name="parenleft" unicode="(" horiz-adv-x="276" 
d="M194 -94q-71 87 -111.5 205t-40.5 237t40.5 237t111.5 205l65 -49q-55 -102 -79 -192t-24 -201q0 -110 24 -200.5t79 -191.5z" />
    <glyph glyph-name="parenright" unicode=")" horiz-adv-x="277" 
d="M83 790q71 -87 111.5 -205t40.5 -237t-40.5 -237t-111.5 -205l-65 50q55 101 79 191.5t24 200.5q0 111 -24 201t-79 192z" />
    <glyph glyph-name="braceleft" unicode="{" horiz-adv-x="277" 
d="M5 386q25 0 38.5 19t13.5 49v186q0 44 19.5 78t52 52.5t70.5 18.5h61v-72h-61q-27 0 -46 -21.5t-19 -54.5v-197q0 -69 -45 -89q45 -19 45 -89v-196q0 -33 19 -55t46 -22h61v-72h-61q-38 0 -70.5 18.5t-52 52.5t-19.5 78v186q0 30 -13.5 49t-38.5 19v62z" />
    <glyph glyph-name="braceright" unicode="}" horiz-adv-x="277" 
d="M272 324q-25 0 -38.5 -19t-13.5 -49v-186q0 -44 -19.5 -78t-52 -52.5t-70.5 -18.5h-61v72h61q27 0 46 22t19 55v196q0 70 45 89q-45 20 -45 89v197q0 33 -19 54.5t-46 21.5h-61v72h61q38 0 70.5 -18.5t52 -52.5t19.5 -78v-186q0 -30 13.5 -49t38.5 -19v-62z" />
    <glyph glyph-name="bracketleft" unicode="[" horiz-adv-x="265" 
d="M122 -6h125v-72h-203v868h203v-72h-125v-724z" />
    <glyph glyph-name="bracketright" unicode="]" horiz-adv-x="265" 
d="M18 790h203v-868h-203v72h125v724h-125v72z" />
    <glyph glyph-name="hyphen" unicode="-" horiz-adv-x="300" 
d="M270 197h-240v90h240v-90z" />
    <glyph glyph-name="endash" unicode="&#x2013;" horiz-adv-x="593" 
d="M563 197h-533v90h533v-90z" />
    <glyph glyph-name="emdash" unicode="&#x2014;" horiz-adv-x="833" 
d="M803 197h-773v90h773v-90z" />
    <glyph glyph-name="underscore" unicode="_" horiz-adv-x="564" 
d="M-3 -40h570v-72h-570v72z" />
    <glyph glyph-name="hyphen.case" unicode="&#xf6ba;" horiz-adv-x="300" 
d="M270 296h-240v90h240v-90z" />
    <glyph glyph-name="endash.case" unicode="&#xf6bb;" horiz-adv-x="593" 
d="M563 296h-533v90h533v-90z" />
    <glyph glyph-name="emdash.case" unicode="&#xf6bc;" horiz-adv-x="833" 
d="M803 296h-773v90h773v-90z" />
    <glyph glyph-name="quotesinglbase" unicode="&#x201a;" horiz-adv-x="239" 
d="M104 -9q-28 7 -37.5 19.5t-9.5 44.5q0 31 17 47.5t47 16.5q31 0 48.5 -18t17.5 -49q-1 -34 -9.5 -57t-31.5 -59l-45 -63l-36 30z" />
    <glyph glyph-name="quotedblbase" unicode="&#x201e;" horiz-adv-x="430" 
d="M118 -5q-28 7 -37 19.5t-9 44.5q0 31 16.5 47.5t47.5 16.5q30 0 47.5 -17.5t17.5 -47.5q0 -35 -8.5 -58.5t-32.5 -59.5l-45 -63l-36 30zM282 -5q-28 7 -37 19.5t-9 44.5q0 31 16.5 47.5t47.5 16.5q30 0 47.5 -17.5t17.5 -47.5q0 -35 -8.5 -58.5t-32.5 -59.5l-45 -63
l-36 30z" />
    <glyph glyph-name="quotedblleft" unicode="&#x201c;" horiz-adv-x="408" 
d="M140 552q28 -7 37.5 -19.5t9.5 -43.5t-17 -48t-47 -17q-31 0 -48.5 18t-17.5 49q1 35 9.5 58t31.5 58l45 63l36 -30zM302 552q28 -7 37 -19.5t9 -43.5t-16.5 -48t-47.5 -17q-29 0 -47 17.5t-18 47.5q0 36 8.5 59t32.5 59l45 63l36 -30z" />
    <glyph glyph-name="quotedblright" unicode="&#x201d;" horiz-adv-x="411" 
d="M104 549q-28 7 -37.5 19.5t-9.5 43.5t17 48t47 17q31 0 48.5 -18t17.5 -49q-1 -35 -9.5 -58t-31.5 -58l-45 -63l-36 30zM268 549q-28 7 -37.5 19.5t-9.5 43.5t17 48t47 17q31 0 48.5 -18t17.5 -49q-1 -35 -9.5 -58t-31.5 -58l-45 -63l-36 30z" />
    <glyph glyph-name="quoteleft" unicode="&#x2018;" horiz-adv-x="239" 
d="M135 549q28 -6 37.5 -18.5t9.5 -44.5q0 -31 -17 -47.5t-47 -16.5q-31 0 -48.5 18t-17.5 49q1 34 9.5 57.5t31.5 57.5l45 64l36 -30z" />
    <glyph glyph-name="quoteright" unicode="&#x2019;" horiz-adv-x="239" 
d="M104 549q-28 7 -37.5 19.5t-9.5 43.5t17 48t47 17q31 0 48.5 -18t17.5 -49q-1 -35 -9.5 -58t-31.5 -58l-45 -63l-36 30z" />
    <glyph glyph-name="quotereversed" unicode="&#x201b;" horiz-adv-x="239" 
d="M174 461l-36 -30l-45 63q-23 35 -31.5 58t-9.5 58q0 31 17.5 49t48.5 18q30 0 47 -17t17 -48t-9.5 -43.5t-37.5 -19.5z" />
    <glyph glyph-name="guillemotleft" unicode="&#xab;" horiz-adv-x="490" 
d="M290 63h-100l-160 180l160 177h100l-160 -177zM460 63h-100l-160 180l160 177h100l-160 -177z" />
    <glyph glyph-name="guillemotright" unicode="&#xbb;" horiz-adv-x="490" 
d="M290 243l-160 -180h-100l160 180l-160 177h100zM460 243l-160 -180h-100l160 180l-160 177h100z" />
    <glyph glyph-name="guilsinglleft" unicode="&#x2039;" horiz-adv-x="320" 
d="M290 63h-100l-160 180l160 177h100l-160 -177z" />
    <glyph glyph-name="guilsinglright" unicode="&#x203a;" horiz-adv-x="320" 
d="M290 243l-160 -180h-100l160 180l-160 177h100z" />
    <glyph glyph-name="quotedbl" unicode="&#x22;" horiz-adv-x="375" 
d="M94 394l-29 180v100h99v-100l-28 -180h-42zM211 574v100h99v-100l-28 -180h-42z" />
    <glyph glyph-name="quotesingle" unicode="'" horiz-adv-x="175" 
d="M56 600v100h99v-100l-29 -180h-42z" />
    <glyph glyph-name="guillemotleft.case" unicode="&#xf6b6;" horiz-adv-x="490" 
d="M290 519l-160 -177l160 -180h-100l-160 180l160 177h100zM460 519l-160 -177l160 -180h-100l-160 180l160 177h100z" />
    <glyph glyph-name="guillemotright.case" unicode="&#xf6b7;" horiz-adv-x="490" 
d="M30 519h100l160 -177l-160 -180h-100l160 180zM200 519h100l160 -177l-160 -180h-100l160 180z" />
    <glyph glyph-name="guilsinglleft.case" unicode="&#xf6b8;" horiz-adv-x="320" 
d="M290 519l-160 -177l160 -180h-100l-160 180l160 177h100z" />
    <glyph glyph-name="guilsinglright.case" unicode="&#xf6b9;" horiz-adv-x="320" 
d="M30 519h100l160 -177l-160 -180h-100l160 180z" />
    <glyph glyph-name="uni00A0" unicode="&#xa0;" horiz-adv-x="258" 
 />
    <glyph glyph-name="uni2009" unicode="&#x2009;" horiz-adv-x="326" 
 />
    <glyph glyph-name="Euro" unicode="&#x20ac;" horiz-adv-x="703" 
d="M264 18q-69 30 -117.5 85.5t-68.5 129.5h-52v62h40q-2 24 -2 38q0 16 3 41h-41v62h52q21 73 69.5 127.5t117.5 84.5t149 30q174 0 268 -149l-100 -52q-25 43 -70 70t-98 27q-70 0 -125 -37.5t-78 -100.5h263v-62h-287q-3 -19 -3 -41q0 -15 3 -38h287v-62h-264
q23 -65 78 -103t126 -38q53 0 98 27t70 70l100 -50q-96 -151 -268 -151q-81 0 -150 30z" />
    <glyph glyph-name="uni20AA" unicode="&#x20aa;" horiz-adv-x="835" 
d="M338 550q122 0 176 -54.5t54 -161.5v-164h-100v156q0 68 -30 100.5t-100 32.5h-170v-459h-100v550h270zM267 0v379h100v-288h170q70 0 100 32.5t30 101.5v325h100v-334q0 -106 -54.5 -161t-175.5 -55h-270z" />
    <glyph glyph-name="cent" unicode="&#xa2;" horiz-adv-x="498" 
d="M65 361.5q26 53.5 73 87.5t108 43v73h78v-73q49 -6 86.5 -27.5t62.5 -55.5l-69 -63q-32 44 -85 50v-308q51 4 85 51l69 -65q-25 -33 -63 -55t-86 -28v-91h-78v91q-61 9 -108 43.5t-73 88t-26 119.5t26 119.5zM176.5 139.5q29.5 -42.5 78.5 -52.5v308q-51 -10 -79.5 -52
t-28.5 -101q0 -60 29.5 -102.5z" />
    <glyph glyph-name="colonmonetary" unicode="&#x20a1;" horiz-adv-x="690" 
d="M365 -10l-29 -90h-31l31 94q-51 8 -91 29l-41 -123h-31l46 138q-72 46 -113 123t-41 172q0 99 44 177.5t120 123t169 44.5l36 -2l31 92h31l-33 -97q46 -9 90 -34l44 131h31l-50 -147q26 -18 52 -48l-25 -22q-15 18 -38 37l-191 -569q5 -1 22 -1q62 0 116.5 26t90.5 71
l26 -21q-94 -106 -233 -106zM134.5 180q34.5 -69 95.5 -111l194 578q-5 1 -26 1q-84 0 -152 -40.5t-107 -112t-39 -162.5q0 -84 34.5 -153zM256 53q38 -22 90 -31l196 584q-42 27 -88 36z" />
    <glyph glyph-name="currency" unicode="&#xa4;" horiz-adv-x="550" 
d="M127 162l-68 -69l-25 25l69 69q-50 62 -50 146q0 86 50 147l-69 70l24 25l70 -70q60 54 147 54q42 0 79.5 -13.5t67.5 -39.5l68 68l25 -24l-69 -70q51 -62 51 -147q0 -82 -50 -146l68 -69l-25 -25l-68 69q-61 -55 -147 -55q-87 0 -148 55zM368 171q41 25 64.5 68t23.5 94
q0 52 -23 94.5t-64.5 67.5t-93.5 25t-93.5 -25t-65 -68t-23.5 -94t23.5 -94t65 -68t93.5 -25t93 25z" />
    <glyph glyph-name="dollar" unicode="$" horiz-adv-x="605" 
d="M269 768h80v-93q122 -12 201 -91l-67 -83q-55 58 -139 70v-175q69 -18 116 -39.5t76 -60.5t29 -101q0 -88 -58 -141.5t-158 -63.5v-90h-80v90q-73 4 -132 31.5t-101 72.5l65 87q70 -80 176 -90v196q-69 17 -115 37t-75.5 58t-29.5 100q0 50 26 92.5t74 69.5t112 32v92z
M201 443.5q24 -17.5 76 -32.5v166q-45 -2 -72.5 -25.5t-27.5 -58.5q0 -32 24 -49.5zM344 91q47 5 74.5 28t27.5 63q0 36 -24 54.5t-78 36.5v-182z" />
    <glyph glyph-name="florin" unicode="&#x192;" horiz-adv-x="445" 
d="M225 245l-91 -406h-119l90 406h-60v93h80l41 182q16 71 67.5 114t119.5 43q70 0 108 -39l-47 -86q-16 22 -47 22q-32 0 -55.5 -20.5t-31.5 -56.5l-35 -159h124v-93h-144z" />
    <glyph glyph-name="frenchfranc" unicode="&#x20a3;" horiz-adv-x="572" 
d="M81 183v484h457v-103h-340v-172h333v-103h-333v-106h175v-62h-175v-121h-117v121h-71v62h71z" />
    <glyph glyph-name="lira" unicode="&#x20a4;" horiz-adv-x="536" 
d="M383 388v-57h-146q23 -30 29 -60h117v-57h-123q-5 -56 -59 -94q23 8 49 8q19 0 36.5 -5t39.5 -15q20 -9 33.5 -13t28.5 -4q30 0 54.5 11t35.5 27l48 -93q-49 -49 -142 -49q-29 0 -51.5 6.5t-52.5 18.5q-24 10 -41 15t-36 5q-46 0 -116 -39l-40 83q54 25 85.5 61t32.5 77
h-143v57h129q-10 27 -39 60h-90v57h55q-30 41 -30 87q0 59 33.5 105t87.5 71.5t113 25.5q77 0 133.5 -29.5t85.5 -87.5l-93 -55q-13 34 -44 55t-69 21q-52 0 -86 -30t-34 -78q0 -44 32 -85h177z" />
    <glyph glyph-name="peseta" unicode="&#x20a7;" horiz-adv-x="662" 
d="M589 411q-9 -84 -66.5 -137.5t-148.5 -53.5h-176v-220h-117v411h-71v64h71v192h293q91 0 148.5 -54t66.5 -138h69v-64h-69zM466 475q-7 41 -35 65t-70 24h-163v-89h268zM361 323q42 0 70.5 24t35.5 64h-269v-88h163z" />
    <glyph glyph-name="uni20A8" unicode="&#x20a8;" horiz-adv-x="1049" 
d="M452 0l-147 249h-117v-249h-117v667h293q66 0 115.5 -27t76.5 -74.5t27 -107.5q0 -82 -46 -134t-113 -62l164 -262h-136zM349 352q50 0 82 29.5t32 77.5q0 47 -32 76t-82 29h-161v-212h161zM695 8.5q-55 20.5 -91 55.5l48 71q28 -29 73 -47.5t90 -18.5t70.5 18.5
t25.5 47.5t-27.5 42t-86.5 27q-56 13 -91.5 26.5t-61 42t-25.5 77.5q0 40 22.5 73.5t65.5 52.5t102 19q114 0 187 -67l-44 -69q-23 27 -60.5 42.5t-82.5 15.5q-40 0 -64.5 -17t-24.5 -44q0 -24 25 -35.5t81 -25.5q57 -13 94.5 -27.5t64.5 -45t27 -81.5q0 -68 -54 -110.5
t-147 -42.5q-61 0 -116 20.5z" />
    <glyph glyph-name="sterling" unicode="&#xa3;" horiz-adv-x="536" 
d="M22 269v69h90q-34 40 -49.5 70t-15.5 67q0 59 33.5 105t87.5 71.5t113 25.5q77 0 133.5 -29.5t85.5 -87.5l-93 -55q-13 34 -44 55t-69 21q-52 0 -86 -30t-34 -78q0 -32 9 -51t34 -52l23 -32h143v-69h-121q6 -16 6 -35q0 -31 -18 -62t-49 -52q23 8 49 8q19 0 36.5 -5
t39.5 -15q20 -9 33.5 -13t28.5 -4q30 0 54.5 11t35.5 27l48 -93q-49 -49 -142 -49q-29 0 -51.5 6.5t-52.5 18.5q-24 10 -41 15t-36 5q-46 0 -116 -39l-40 83q54 25 86 60t32 76q0 26 -13 57h-130z" />
    <glyph glyph-name="yen" unicode="&#xa5;" horiz-adv-x="637" 
d="M378 0h-117v118h-238v68h238v91h-238v68h194l-215 322h134l183 -285l183 285h134l-215 -322h194v-68h-237v-91h237v-68h-237v-118z" />
    <glyph glyph-name="dotmath" unicode="&#x22c5;" horiz-adv-x="208" 
d="M155 246q0 -20 -15 -35.5t-36 -15.5t-35.5 15.5t-14.5 35.5q0 19 15 33.5t35 14.5q21 0 35 -13q16 -16 16 -35z" />
    <glyph glyph-name="plus" unicode="+" horiz-adv-x="502" 
d="M473 304h-185v-208h-74v208h-185v67h185v201h74v-201h185v-67z" />
    <glyph glyph-name="minus" unicode="&#x2212;" horiz-adv-x="502" 
d="M473 370v-68h-444v68h444z" />
    <glyph glyph-name="multiply" unicode="&#xd7;" horiz-adv-x="502" 
d="M299 334l144 -144l-47 -48l-145 145l-144 -145l-48 48l145 144l-145 145l48 47l144 -144l145 144l47 -47z" />
    <glyph glyph-name="divide" unicode="&#xf7;" horiz-adv-x="511" 
d="M294 481.5q-16 -16.5 -38 -16.5q-23 0 -39 16.5t-16 39.5q0 22 16 37.5t39 15.5q22 0 38 -15.5t16 -37.5q0 -23 -16 -39.5zM29 371h453v-67h-453v67zM294 113q-16 -16 -38 -16q-23 0 -39 16t-16 39q0 22 16 38t39 16t38.5 -15.5t15.5 -38.5t-16 -39z" />
    <glyph glyph-name="equal" unicode="=" horiz-adv-x="502" 
d="M473 396h-444v67h444v-67zM473 205h-444v68h444v-68z" />
    <glyph glyph-name="notequal" unicode="&#x2260;" horiz-adv-x="502" 
d="M131 93h-66l71 112h-107v68h150l78 123h-228v67h271l71 111h67l-71 -111h106v-67h-148l-79 -123h227v-68h-270z" />
    <glyph glyph-name="greater" unicode="&#x3e;" horiz-adv-x="502" 
d="M473 297l-444 -207v81l365 163l-365 166v80l444 -207v-76z" />
    <glyph glyph-name="less" unicode="&#x3c;" horiz-adv-x="502" 
d="M473 90l-444 207v76l444 207v-80l-364 -166l364 -163v-81z" />
    <glyph glyph-name="greaterequal" unicode="&#x2265;" horiz-adv-x="502" 
d="M473 312l-444 -207v81l364 163l-364 166v80l444 -207v-76zM473 0h-444v68h444v-68z" />
    <glyph glyph-name="lessequal" unicode="&#x2264;" horiz-adv-x="502" 
d="M473 105l-444 207v76l444 207v-80l-364 -166l364 -163v-81zM473 0h-444v68h444v-68z" />
    <glyph glyph-name="plusminus" unicode="&#xb1;" horiz-adv-x="502" 
d="M473 325h-185v-207h-74v207h-185v68h185v200h74v-200h185v-68zM473 0h-444v68h444v-68z" />
    <glyph glyph-name="approxequal" unicode="&#x2248;" horiz-adv-x="502" 
d="M29 465q49 -31 111 -31q29 0 50 6.5t52 19.5q33 14 58.5 21t60.5 7q64 0 112 -25v-74q-49 32 -112 32q-29 0 -50 -6.5t-52 -19.5q-35 -15 -59.5 -22t-59.5 -7q-29 0 -58.5 6.5t-52.5 18.5v74zM29 279q51 -31 111 -31q29 0 50 6.5t52 19.5q35 15 59.5 22t59.5 7
q60 0 112 -25v-74q-50 31 -112 31q-29 0 -50 -6.5t-52 -19.5q-33 -14 -58.5 -21t-60.5 -7q-61 0 -111 24v74z" />
    <glyph glyph-name="asciitilde" unicode="~" horiz-adv-x="507" 
d="M481 659q-10 -110 -41 -176t-103 -66q-33 0 -54.5 15.5t-33 37.5t-23.5 57q-12 37 -23.5 54.5t-31.5 17.5q-29 0 -46 -50.5t-24 -132.5l-74 9q10 112 42 176.5t102 64.5q34 0 56 -16.5t34 -39t24 -57.5q12 -36 22.5 -53t29.5 -17q33 0 48.5 51.5t22.5 132.5z" />
    <glyph glyph-name="logicalnot" unicode="&#xac;" horiz-adv-x="511" 
d="M473 463v-258h-70v191h-374v67h444z" />
    <glyph glyph-name="asciicircum" unicode="^" horiz-adv-x="437" 
d="M418 333h-80l-119 261l-119 -261h-81l162 334h77z" />
    <glyph glyph-name="infinity" unicode="&#x221e;" horiz-adv-x="676" 
d="M101.5 188q-36.5 24 -54.5 63.5t-18 84.5t18 84.5t54.5 63.5t89.5 24q47 0 85.5 -29t61.5 -76q23 47 61.5 76t85.5 29q79 0 120.5 -50.5t41.5 -122.5q0 -71 -41.5 -121t-120.5 -50q-47 0 -86 28.5t-61 75.5q-22 -47 -61 -75.5t-86 -28.5q-53 0 -89.5 24zM261.5 258
q27.5 27 45.5 78q-18 51 -45.5 78t-62.5 27q-44 0 -70.5 -29t-26.5 -76t27 -76t70 -29q35 0 62.5 27zM547.5 259.5q26.5 28.5 26.5 75.5q0 48 -26.5 77t-70.5 29q-34 0 -61.5 -27.5t-46.5 -78.5q19 -51 46.5 -77.5t61.5 -26.5q44 0 70.5 28.5z" />
    <glyph glyph-name="integral" unicode="&#x222b;" horiz-adv-x="363" 
d="M17 -100v72h61q27 0 46 22t19 55v570q0 44 19.5 78t52 52.5t70.5 18.5h61v-72h-61q-27 0 -46 -21.5t-19 -54.5v-571q0 -44 -19.5 -78t-52 -52.5t-70.5 -18.5h-61z" />
    <glyph glyph-name="uni2126" unicode="&#x2126;" horiz-adv-x="765" 
d="M185 103q-68 44 -105.5 108.5t-37.5 146.5q0 95 43.5 167.5t121.5 112.5t176 40t176 -40t121.5 -112.5t43.5 -167.5q0 -82 -37.5 -146.5t-105.5 -108.5h125v-103h-256v103q69 19 111.5 82.5t42.5 148.5q0 64 -25 118.5t-75 87.5t-121 33t-121 -33t-75 -87.5t-25 -118.5
q0 -85 42.5 -148.5t111.5 -82.5v-103h-256v103h125z" />
    <glyph glyph-name="uni2206" unicode="&#x2206;" horiz-adv-x="673" 
d="M672 0h-670l262 667h146zM506 103l-169 447l-170 -447h339z" />
    <glyph glyph-name="product" unicode="&#x220f;" horiz-adv-x="754" 
d="M619 -90h-117v654h-250v-654h-117v654h-107v103h698v-103h-107v-654z" />
    <glyph glyph-name="summation" unicode="&#x2211;" horiz-adv-x="582" 
d="M50 565v102h483v-103h-337l212 -266l-218 -285h343v-103h-484v103l215 284z" />
    <glyph glyph-name="radical" unicode="&#x221a;" horiz-adv-x="701" 
d="M593 667h80l-259 -667h-73l-120 313l-141 -53l-21 65l208 75l112 -294z" />
    <glyph glyph-name="uni00B5" unicode="&#xb5;" horiz-adv-x="574" 
d="M173 -184h-105v667h105v-303q0 -100 99 -100q36 0 69 18.5t53 45.5v339h105v-399q0 -61 36 -75l-88 -14q-49 8 -53 69q-27 -31 -66.5 -49.5t-78.5 -18.5q-44 0 -76 25v-205z" />
    <glyph glyph-name="partialdiff" unicode="&#x2202;" horiz-adv-x="574" 
d="M156.5 20q-56.5 32 -87 87t-30.5 122q0 65 28 120t77.5 87t110.5 32q102 0 155 -80q-29 70 -88.5 130.5t-144.5 103.5l82 61q76 -42 138.5 -107.5t100 -148.5t37.5 -174q0 -78 -30 -138t-86.5 -93.5t-131.5 -33.5q-74 0 -130.5 32zM388.5 122.5q37.5 41.5 37.5 106.5
q0 64 -37.5 105.5t-101.5 41.5q-63 0 -101 -41.5t-38 -105.5t38 -106t101 -42q64 0 101.5 41.5z" />
    <glyph glyph-name="percent" unicode="%" horiz-adv-x="747" 
d="M107.5 367.5q-37.5 21.5 -58.5 59.5t-21 84q0 47 21 85t58.5 59.5t86.5 21.5t86.5 -21.5t58.5 -59.5t21 -85q0 -46 -21 -84t-58.5 -59.5t-86.5 -21.5t-86.5 21.5zM196 0h-67l426 667h68zM258 440q25 27 25 71q0 45 -25 72.5t-64 27.5q-38 0 -63 -28t-25 -72
q0 -43 25 -70.5t63 -27.5q39 0 64 27zM466.5 9.5q-37.5 21.5 -58.5 59.5t-21 84q0 47 21 85t58.5 59.5t86.5 21.5t86.5 -21.5t58.5 -59.5t21 -85q0 -46 -21 -84t-58.5 -59.5t-86.5 -21.5t-86.5 21.5zM617 82q25 27 25 71q0 45 -25 72.5t-64 27.5t-64 -27.5t-25 -72.5
q0 -44 24.5 -71t64.5 -27q39 0 64 27z" />
    <glyph glyph-name="perthousand" unicode="&#x2030;" horiz-adv-x="1106" 
d="M339 427q-21 -38 -58.5 -59.5t-86.5 -21.5t-86.5 21.5t-58.5 59.5t-21 84q0 47 21 85t58.5 59.5t86.5 21.5t86.5 -21.5t58.5 -59.5t21 -85q0 -46 -21 -84zM623 667l-427 -667h-67l426 667h68zM258 588q-25 29 -64 29q-38 0 -63 -29t-25 -77q0 -47 25 -75.5t63 -28.5
q39 0 64 28.5t25 75.5q0 48 -25 77zM698 69q-21 -38 -58.5 -59.5t-86.5 -21.5t-86.5 21.5t-58.5 59.5t-21 84q0 47 21 85t58.5 59.5t86.5 21.5t86.5 -21.5t58.5 -59.5t21 -85q0 -46 -21 -84zM1057 69q-21 -38 -58.5 -59.5t-86.5 -21.5t-86.5 21.5t-58.5 59.5t-21 84
q0 47 21 85t58.5 59.5t86.5 21.5t86.5 -21.5t58.5 -59.5t21 -85q0 -46 -21 -84zM617 230q-25 29 -64 29t-64 -29t-25 -77q0 -47 25 -75.5t64 -28.5t64 28.5t25 75.5q0 48 -25 77zM976 230q-25 29 -64 29t-64 -29t-25 -77q0 -47 25 -75.5t64 -28.5t64 28.5t25 75.5
q0 48 -25 77z" />
    <glyph glyph-name="uni22B3" unicode="&#x22b3;" horiz-adv-x="587" 
d="M535 595v-618l-535 309z" />
    <glyph glyph-name="uni22B2" unicode="&#x22b2;" horiz-adv-x="587" 
d="M589 286l-535 -309v618z" />
    <glyph glyph-name="arrowup" unicode="&#x2191;" horiz-adv-x="582" 
d="M216 17v269l-130 -12l205 281l204 -281l-129 12v-269h-150z" />
    <glyph glyph-name="arrowright" unicode="&#x2192;" horiz-adv-x="582" 
d="M584 286l-281 -205l12 130h-268v150h268l-12 129z" />
    <glyph glyph-name="arrowdown" unicode="&#x2193;" horiz-adv-x="582" 
d="M366 555v-269l130 12l-205 -281l-204 281l129 -12v269h150z" />
    <glyph glyph-name="arrowleft" unicode="&#x2190;" horiz-adv-x="582" 
d="M538 211h-269l12 -130l-281 205l281 204l-12 -129h269v-150z" />
    <glyph glyph-name="uni25CF" unicode="&#x25cf;" horiz-adv-x="695" 
d="M604 136q-40 -68 -108 -108t-149 -40t-149 40t-108 108t-40 149t40 149t108 108t149 40t149 -40t108 -108t40 -149t-40 -149z" />
    <glyph glyph-name="lozenge" unicode="&#x25ca;" horiz-adv-x="375" 
d="M198 667l158 -333l-158 -334h-21l-158 334l158 333h21zM187 626l-132 -292l133 -293l132 293z" />
    <glyph glyph-name="filledbox" unicode="&#x25a0;" horiz-adv-x="661" 
d="M47 572h571v-572h-571v572z" />
    <glyph glyph-name="triagup" unicode="&#x25b2;" horiz-adv-x="616" 
d="M-2 30l309 535l310 -536z" />
    <glyph glyph-name="triagdn" unicode="&#x25bc;" horiz-adv-x="616" 
d="M307 -25l-309 535h619z" />
    <glyph glyph-name="uni2605" unicode="&#x2605;" horiz-adv-x="759" 
d="M379 697l90 -276h290l-235 -171l90 -275l-235 170l-234 -170l89 275l-234 171h290z" />
    <glyph glyph-name="uni2610" unicode="&#x2610;" horiz-adv-x="661" 
d="M45 572h571v-572h-571v572zM119 505v-437h424v437h-424z" />
    <glyph glyph-name="diamond" unicode="&#x2666;" horiz-adv-x="501" 
d="M501 285l-251 -250l-250 250l250 251z" />
    <glyph glyph-name="uni2713" unicode="&#x2713;" horiz-adv-x="531" 
d="M531 698l-329 -607l-202 246l53 50l139 -170l281 518z" />
    <glyph glyph-name="uniF8FF" unicode="&#xf8ff;" horiz-adv-x="1624" 
d="M65 667h473l287 -398l-287 -269zM658 667h567l333 -472l-333 -326z" />
    <glyph glyph-name="at" unicode="@" horiz-adv-x="851" 
d="M779 377q0 -11 -2 -31l-11 -129q-3 -38 -23 -72t-50.5 -54t-63.5 -20q-26 0 -49 10t-40 28l-8 10q-38 -24 -82 -24h-55q-34 0 -66 13.5t-54 38.5q-23 25 -34 58t-7 66l3 36q4 45 30 83.5t67 61.5t87 23h54q38 0 73 -19v3l75 -1l-10 -116q0 -11 -1 -16l-7 -90l-3 -21
l-2 -17q1 -12 9 -21.5t20 -9.5q18 0 31.5 17t15.5 41l12 128q1 8 1 22q0 73 -41 117q-26 28 -63 41t-76 13h-105q-94 0 -160 -57q-32 -28 -50.5 -66.5t-22.5 -84.5l-11 -123q-1 -7 -1 -19q0 -69 45 -119q25 -28 62.5 -43.5t81.5 -15.5h154v-90h-154q-63 0 -117.5 22.5
t-93.5 65.5q-33 37 -50.5 83t-17.5 98q0 17 1 26l11 123q7 84 51 150t115 103t157 37h101q64 0 117.5 -21t91.5 -62q37 -42 52 -92q13 -44 13 -84zM457 185q24 0 43.5 18t21.5 41l7 90q3 20 -11 37q-14 14 -36 14h-54q-36 0 -64 -26t-30 -61l-3 -34q-3 -33 18 -56
q20 -23 53 -23h55z" />
    <glyph glyph-name="ampersand" unicode="&#x26;" horiz-adv-x="648" 
d="M130 463.5q16 -32.5 58 -83.5q-75 -43 -114.5 -89.5t-39.5 -111.5q0 -90 62.5 -137.5t161.5 -47.5q45 0 105 21.5t108 63.5l71 -79h131l-141 149q21 43 30 80t9 88h-100q1 -26 -4 -51t-14 -38l-115 133q61 43 89.5 81t28.5 91q0 70 -43.5 107t-121.5 37q-79 0 -128 -37.5
t-49 -105.5q0 -38 16 -70.5zM340.5 579q15.5 -15 15.5 -46q0 -34 -21 -57.5t-63 -50.5q-26 29 -42 53t-16 54q0 32 19 47t58 15q34 0 49.5 -15zM400 151q-62 -68 -142 -68q-56 0 -88 24.5t-32 71.5q0 41 24.5 69t91.5 67z" />
    <glyph glyph-name="paragraph" unicode="&#xb6;" horiz-adv-x="449" 
d="M337 -100v712h-83v-712h-55v423q-47 0 -86.5 23t-62.5 62.5t-23 86.5t23 86.5t62.5 62.5t86.5 23h193v-767h-55z" />
    <glyph glyph-name="section" unicode="&#xa7;" horiz-adv-x="477" 
d="M412.5 246.5q-22.5 -33.5 -65.5 -52.5q88 -36 88 -122q0 -71 -55.5 -112t-145.5 -41q-67 0 -117 20.5t-89 57.5l47 68q28 -32 71 -52t88 -20t72.5 18.5t27.5 51.5q0 22 -15.5 36.5t-38 22t-64.5 18.5q-55 14 -90 27.5t-59.5 42t-24.5 76.5q0 47 30 79.5t75 45.5
q-105 37 -105 126q0 40 24 72t67 50t98 18q122 0 188 -69l-44 -62q-25 27 -61.5 42t-77.5 15q-42 0 -67.5 -18t-25.5 -47q0 -28 27.5 -41.5t84.5 -26.5q56 -13 92 -27t62 -43.5t26 -78.5q0 -41 -22.5 -74.5zM307 354.5q-24 18.5 -72 29.5q-50 -12 -71 -32.5t-21 -51.5
q0 -34 33 -52.5t86 -28.5q69 30 69 85q0 32 -24 50.5z" />
    <glyph glyph-name="copyright" unicode="&#xa9;" horiz-adv-x="778" 
d="M687.5 161q-46.5 -79 -125.5 -125.5t-173 -46.5q-93 0 -172.5 46.5t-126 126t-46.5 172.5q0 94 46.5 173t125.5 125.5t173 46.5t173 -46t125.5 -125.5t46.5 -173.5t-46.5 -173zM658 490q-42 71 -113 113t-156 42q-84 0 -155.5 -42t-113.5 -113.5t-42 -155.5t42 -155.5
t113.5 -113.5t155.5 -42t155.5 42t113.5 113.5t42 155.5q0 85 -42 156zM541 190q-27 -33 -65 -50.5t-83 -17.5q-57 0 -104.5 28t-75.5 77t-28 109q0 59 28 107.5t75.5 76t104.5 27.5q90 0 147 -66l-28 -29q-20 27 -51.5 42.5t-67.5 15.5q-45 0 -83 -22.5t-60.5 -62.5
t-22.5 -90q0 -49 22.5 -89.5t60.5 -63.5t83 -23q36 0 68 16t51 43z" />
    <glyph glyph-name="registered" unicode="&#xae;" horiz-adv-x="494" 
d="M430.5 358.5q-28.5 -48.5 -77 -77t-106.5 -28.5t-106.5 28.5t-77 77t-28.5 106.5t28.5 106.5t77 77t106.5 28.5q59 0 107.5 -28t76.5 -76.5t28 -107.5q0 -58 -28.5 -106.5zM404.5 557q-24.5 42 -66 66t-91.5 24q-49 0 -90.5 -24t-66 -66t-24.5 -92q0 -49 24.5 -90.5
t66 -66t90.5 -24.5q50 0 91.5 24.5t66 66t24.5 90.5q0 50 -24.5 92zM305 343l-63 96h-43v-96h-33v243h99q32 0 55 -20.5t23 -53.5q0 -23 -11 -39.5t-25.5 -24.5t-25.5 -8l65 -97h-41zM295.5 544q-13.5 13 -30.5 13h-66v-88h66q16 0 30 13t14 30q0 19 -13.5 32z" />
    <glyph glyph-name="uni2117" unicode="&#x2117;" horiz-adv-x="778" 
d="M687.5 161.5q-46.5 -79.5 -125.5 -126t-173 -46.5q-93 0 -172.5 46.5t-126 126t-46.5 172.5t46.5 172.5t126 126t172.5 46.5q94 0 173.5 -46.5t125.5 -125.5t46 -173q0 -93 -46.5 -172.5zM658 489.5q-42 71.5 -113.5 113.5t-155.5 42t-155.5 -42t-113.5 -113.5
t-42 -155.5t42 -155.5t113.5 -113.5t155.5 -42t155.5 42t113.5 113.5t42 155.5t-42 155.5zM516.5 333.5q-36.5 -32.5 -90.5 -32.5h-112v-170h-41v405h153q53 0 90 -32.5t37 -85.5q0 -52 -36.5 -84.5zM486 475.5q-24 22.5 -60 22.5h-112v-158h112q36 0 60 21.5t24 56.5
t-24 57.5z" />
    <glyph glyph-name="trademark" unicode="&#x2122;" horiz-adv-x="356" 
d="M65 667h85v-15h-34v-109h-16v109h-35v15zM267 667h24v-124h-16v102l-42 -69h-4l-43 69v-102h-15v124h24l36 -57z" />
    <glyph glyph-name="degree" unicode="&#xb0;" horiz-adv-x="302" 
d="M263.5 482.5q-17.5 -29.5 -47.5 -47t-65 -17.5t-65 17.5t-47 47t-17 64.5t17 65t47 47.5t65 17.5q36 0 65.5 -17.5t47 -47t17.5 -65.5q0 -35 -17.5 -64.5zM200.5 596.5q-20.5 20.5 -49.5 20.5q-28 0 -48.5 -20.5t-20.5 -49.5q0 -28 20 -48t49 -20q28 0 49 20t21 48
q0 29 -20.5 49.5z" />
    <glyph glyph-name="bar" unicode="|" horiz-adv-x="214" 
d="M143 -80h-72v827h72v-827z" />
    <glyph glyph-name="brokenbar" unicode="&#xa6;" horiz-adv-x="214" 
d="M71 687h72v-316h-72v316zM71 296h72v-316h-72v316z" />
    <glyph glyph-name="dagger" unicode="&#x2020;" horiz-adv-x="271" 
d="M161 577l89 3v-54l-89 4l4 -203h-59l4 203l-89 -4v54l89 -3l-4 100h59z" />
    <glyph glyph-name="uni2113" unicode="&#x2113;" horiz-adv-x="504" 
d="M174 130q0 -27 12 -42.5t34 -15.5q27 0 46 18l25 -71q-16 -15 -42 -23t-56 -8q-60 0 -92 30.5t-32 94.5v382q0 51 27 93t75.5 65.5t109.5 23.5q53 0 97.5 -17t71 -48.5t26.5 -70.5q0 -47 -36 -87t-103 -85l-163 -109v-130zM301 444q41 28 58 47.5t17 44.5q0 29 -29 48
t-68 19q-47 0 -76 -29.5t-29 -79.5v-134z" />
    <glyph glyph-name="daggerdbl" unicode="&#x2021;" horiz-adv-x="271" 
d="M165 677l-4 -100l89 3v-54l-89 4v-202l89 4v-54l-89 3l4 -101h-59l4 101l-89 -3v54l89 -4v202l-89 -4v54l89 -3l-4 100h59z" />
    <glyph glyph-name="uni2116" unicode="&#x2116;" horiz-adv-x="1125" 
d="M834 372q-38 22 -59 60t-21 83q0 46 21 83.5t59 59.5t88 22q51 0 89 -22t59 -59.5t21 -83.5q0 -45 -21 -83t-59 -60t-89 -22q-50 0 -88 22zM532 667h117v-667h-113l-348 477v-477h-117v667h120l341 -462v462zM987.5 441q24.5 28 24.5 74t-24.5 73.5t-65.5 27.5
q-40 0 -63.5 -27.5t-23.5 -73.5t23.5 -74t63.5 -28q41 0 65.5 28z" />
    <glyph glyph-name="estimated" unicode="&#x212e;" horiz-adv-x="842" 
d="M811 324h-632q-5 0 -5 -5v-190q0 -14 9 -23q97 -103 240 -103q151 0 250 115h57q-55 -64 -136 -100t-173 -36q-106 0 -195.5 47.5t-142 128t-52.5 175.5t52.5 175.5t142 128t195.5 47.5t195.5 -47.5t142 -128t52.5 -175.5v-9zM668 540q0 14 -10 24q-97 99 -235 99
q-140 0 -239 -102q-10 -10 -10 -24v-188q0 -6 5 -6h485q4 0 4 6v191z" />
    <glyph glyph-name="uni2318" unicode="&#x2318;" horiz-adv-x="667" 
d="M592.5 75q-32.5 -33 -78.5 -33t-79 33t-33 79v58h-137v-58q0 -46 -33 -79t-79 -33t-78.5 33t-32.5 79t32.5 78.5t78.5 32.5h58v137h-57q-46 0 -79 33t-33 79t33 78.5t79 32.5t78.5 -32.5t32.5 -78.5v-59h137v59q0 46 33 78.5t79 32.5t78.5 -32.5t32.5 -78.5t-32.5 -79
t-78.5 -33h-58v-137h58q46 0 78.5 -32.5t32.5 -78.5t-32.5 -79zM211 514q0 24 -17 41t-40 17q-25 0 -42 -17t-17 -41t17 -41.5t42 -17.5h57v59zM554.5 555q-17.5 17 -40.5 17q-24 0 -41 -17t-17 -41v-59h58q23 0 40.5 17.5t17.5 41.5t-17.5 41zM265 265h137v137h-137v-137z
M153 212q-24 0 -41 -17.5t-17 -40.5q0 -25 17 -42t41 -17t41 17t17 42v58h-58zM555 194.5q-17 17.5 -41 17.5h-58v-58q0 -25 17 -42t41 -17t41 17t17 42q0 23 -17 40.5z" />
    <glyph glyph-name="uni2120" unicode="&#x2120;" horiz-adv-x="476" 
d="M165.5 457q-22.5 -18 -64.5 -18q-54 0 -86 36l18 21q29 -32 66 -32q56 0 56 39q0 17 -20 29t-48 16t-48 20t-20 41q0 28 22.5 46t57.5 18q55 0 82 -32l-18 -19q-22 27 -63 27q-21 0 -34.5 -10t-13.5 -26q0 -29 68 -41q29 -5 48.5 -22t19.5 -44q0 -31 -22.5 -49zM396 667
h43v-220h-28v182l-75 -182h-8l-75 182v-182h-28v220h43l64 -160z" />
    <glyph glyph-name="uni0308" unicode="&#x308;" horiz-adv-x="0" 
d="M-205 567q-17 -17 -42 -17q-24 0 -41.5 17t-17.5 41q0 25 17.5 42t41.5 17q25 0 42 -17t17 -42q0 -24 -17 -41zM4 567q-17 -17 -42 -17q-24 0 -41 17t-17 41q0 25 17 42t41 17q25 0 42 -17t17 -42q0 -24 -17 -41z" />
    <glyph glyph-name="uni0307" unicode="&#x307;" horiz-adv-x="0" 
d="M-367 585v124h122v-124h-122z" />
    <glyph glyph-name="gravecomb" unicode="&#x300;" horiz-adv-x="0" 
d="M-240 700h100l140 -144h-75z" />
    <glyph glyph-name="acutecomb" unicode="&#x301;" horiz-adv-x="0" 
d="M-240 556l140 144h100l-165 -144h-75z" />
    <glyph glyph-name="uni0302" unicode="&#x302;" horiz-adv-x="0" 
d="M0 556h-66l-78 97l-74 -97h-67l93 144h96z" />
    <glyph glyph-name="uni0306" unicode="&#x306;" horiz-adv-x="0" 
d="M0 635q-31 -43 -75.5 -65.5t-99.5 -22.5q-54 0 -99 22.5t-77 65.5l49 40q47 -66 127 -66t128 66z" />
    <glyph glyph-name="uni030A" unicode="&#x30a;" horiz-adv-x="0" 
d="M-173.5 577.5q-30.5 30.5 -30.5 72.5t30.5 72t72.5 30t72 -30t30 -72t-30 -72.5t-72 -30.5t-72.5 30.5zM-65 613q15 15 15 37t-15 37t-36 15q-22 0 -37 -15.5t-15 -36.5t15 -36.5t37 -15.5q21 0 36 15z" />
    <glyph glyph-name="tildecomb" unicode="&#x303;" horiz-adv-x="0" 
d="M-143.5 565.5q-15.5 11.5 -33.5 33.5q-13 17 -22.5 25t-22.5 8q-19 0 -30 -18t-11 -54h-58q0 63 27 98.5t76 35.5q26 0 42 -12t33 -34q12 -16 21.5 -24t22.5 -8q19 0 30.5 18.5t11.5 53.5h57q0 -63 -27 -98.5t-76 -35.5q-25 0 -40.5 11.5z" />
    <glyph glyph-name="uni0304" unicode="&#x304;" horiz-adv-x="0" 
d="M0 586h-363v62h363v-62z" />
    <glyph glyph-name="uniF6C3" unicode="&#xf6c3;" horiz-adv-x="0" 
d="M-82 -218.5q-21 -38.5 -57 -62.5l-38 31q22 13 39.5 36.5t20.5 45.5q-6 -2 -13 -2q-21 0 -35 14.5t-14 36.5q0 23 16 39.5t39 16.5q26 0 44.5 -20.5t18.5 -54.5q0 -42 -21 -80.5z" />
    <glyph glyph-name="uni0326" unicode="&#x326;" horiz-adv-x="0" 
d="M-183 -215v124h122v-124l-82 -119l-36 30l39 89h-43z" />
    <glyph glyph-name="uni0328" unicode="&#x328;" horiz-adv-x="0" 
d="M-59 0q-74 -37 -74 -93q0 -46 41 -46q33 0 46 38l47 -27q-31 -58 -93 -58q-42 0 -69 22.5t-27 66.5q0 37 23.5 69.5t65.5 54.5z" />
    <glyph glyph-name="uni0335" unicode="&#x335;" horiz-adv-x="0" 
d="M-256 278h-337v103h337v-103z" />
    <glyph glyph-name="uni0337" unicode="&#x337;" horiz-adv-x="0" 
d="M-406 116l-79 67l319 330l78 -67z" />
    <glyph glyph-name="uni0338" unicode="&#x338;" horiz-adv-x="0" 
d="M-535 -36l-52 50l453 540l52 -49z" />
    <glyph glyph-name="dieresis" unicode="&#xa8;" horiz-adv-x="285" 
d="M80 567q-17 -17 -42 -17q-24 0 -41.5 17t-17.5 41q0 25 17.5 42t41.5 17q25 0 42 -17t17 -42q0 -24 -17 -41zM289 567q-17 -17 -42 -17q-24 0 -41 17t-17 41q0 25 17 42t41 17q25 0 42 -17t17 -42q0 -24 -17 -41z" />
    <glyph glyph-name="dotaccent" unicode="&#x2d9;" horiz-adv-x="148" 
d="M32.5 565.5q-17.5 17.5 -17.5 41.5q0 25 17.5 42t41.5 17t41.5 -17t17.5 -42q0 -24 -17.5 -41.5t-41.5 -17.5t-41.5 17.5z" />
    <glyph glyph-name="grave" unicode="`" horiz-adv-x="240" 
d="M0 700h100l140 -144h-75z" />
    <glyph glyph-name="acute" unicode="&#xb4;" horiz-adv-x="240" 
d="M0 556l140 144h100l-165 -144h-75z" />
    <glyph glyph-name="hungarumlaut" unicode="&#x2dd;" horiz-adv-x="324" 
d="M0 556l90 144h88l-115 -144h-63zM146 556l90 144h88l-115 -144h-63z" />
    <glyph glyph-name="circumflex" unicode="&#x2c6;" horiz-adv-x="285" 
d="M285 556h-66l-78 97l-74 -97h-67l93 144h96z" />
    <glyph glyph-name="caron" unicode="&#x2c7;" horiz-adv-x="285" 
d="M192 556h-96l-96 144h67l77 -96l75 96h66z" />
    <glyph glyph-name="breve" unicode="&#x2d8;" horiz-adv-x="351" 
d="M351 635q-31 -43 -75.5 -65.5t-99.5 -22.5q-54 0 -99 22.5t-77 65.5l49 40q47 -66 127 -66t128 66z" />
    <glyph glyph-name="ring" unicode="&#x2da;" horiz-adv-x="204" 
d="M30.5 577.5q-30.5 30.5 -30.5 72.5t30.5 72t72.5 30t71.5 -30t29.5 -72t-29.5 -72.5t-71.5 -30.5t-72.5 30.5zM139 613q15 15 15 37t-15 37t-36 15q-22 0 -37 -15.5t-15 -36.5t15 -36.5t37 -15.5q21 0 36 15z" />
    <glyph glyph-name="tilde" unicode="&#x2dc;" horiz-adv-x="321" 
d="M177.5 565.5q-15.5 11.5 -33.5 33.5q-13 17 -22.5 25t-22.5 8q-19 0 -30 -18t-11 -54h-58q0 63 27 98.5t76 35.5q26 0 42 -12t33 -34q12 -16 21.5 -24t22.5 -8q19 0 30.5 18.5t11.5 53.5h57q0 -63 -27 -98.5t-76 -35.5q-25 0 -40.5 11.5z" />
    <glyph glyph-name="macron" unicode="&#xaf;" horiz-adv-x="363" 
d="M363 586h-363v62h363v-62z" />
    <glyph glyph-name="cedilla" unicode="&#xb8;" horiz-adv-x="214" 
d="M45.5 -185.5q-27.5 8.5 -45.5 22.5l23 46q35 -29 81 -29q23 0 39 9.5t16 26.5q0 30 -32 30q-21 0 -35 -15l-40 23l30 83h55l-25 -64q16 11 36 11q28 0 47 -19.5t19 -49.5q0 -37 -31 -60t-77 -23q-33 0 -60.5 8.5z" />
    <glyph glyph-name="ogonek" unicode="&#x2db;" horiz-adv-x="188" 
d="M129 0q-74 -37 -74 -93q0 -46 41 -46q33 0 46 38l46 -27q-29 -58 -92 -58q-42 0 -69 22.5t-27 66.5q0 37 23.5 69.5t65.5 54.5z" />
    <glyph glyph-name="tonos" unicode="&#x384;" horiz-adv-x="388" 
d="M177 765h118l-70 -190h-79z" />
    <glyph glyph-name="lowercaseshoulder" 
d="M395 297q0 64 -35.5 92t-83.5 28q-47 0 -81.5 -33t-34.5 -107l-44 -1q-2 -11 -2 75q0 32 24.5 69.5t67 63.5t93.5 26q44 0 89.5 -18.5t78.5 -66t33 -128.5h-105z" />
    <glyph glyph-name="lowercasestem" 
d="M242 0v500h105v-500h-105z" />
    <glyph glyph-name="lowercaseshortstem" 
d="M395 0v299h105v-299h-105z" />
    <glyph glyph-name="lowercasealoop" 
d="M475.5 118q-34.5 -60 -93 -95.5t-126.5 -35.5q-75 0 -132 34.5t-88.5 94t-31.5 133.5t31.5 134t88.5 94.5t132 34.5q68 0 126.5 -35.5t93 -96t34.5 -131.5t-34.5 -131zM351 109q37 21 58.5 58t21.5 83t-21.5 82.5t-58.5 57t-82 20.5t-81.5 -20.5t-57.5 -57.5t-21 -83
t21 -83t57.5 -57.5t81.5 -20.5t82 21z" />
    <glyph glyph-name="newGlyph" 
 />
    <glyph glyph-name="lowercaseftop" 
d="M274 608l-20 1q-54 0 -83.5 -24t-29.5 -71v-86h-105v63q0 66 29 118.5t83 80.5t126 23v-105z" />
    <glyph glyph-name="lowercasegdescender" 
d="M465 500h105v-475q0 -71 -35.5 -125t-97 -83.5t-137.5 -29.5q-87 0 -156 33.5t-97 87.5l90 52q16 -32 59.5 -54t105.5 -22q71 0 117 39t46 102v475z" />
    <glyph glyph-name="lowercasethook" 
d="M261 0q-45 -5 -76 -5q-75 0 -111.5 35.5t-36.5 126.5v103h105v-96q0 -40 16.5 -55t54.5 -15q21 0 48 3v-97z" />
    <glyph glyph-name="lowercaser" 
d="M307 410q-10 3 -21 3q-62 0 -104 -37.5t-42 -105.5l-20 6q10 7 10 93q0 32 20 65.5t58.5 55t89.5 21.5q11 0 17 -1z" />
    <glyph glyph-name="lowercasetcross" horiz-adv-x="1200" 
d="M154 405v95h324v-95h-324z" />
    <glyph glyph-name="ascenderstem" 
d="M77 0v700h111v-700h-111z" />
    <glyph glyph-name="uppercasehoriz" horiz-adv-x="802" 
d="M197 595v105h214v-105h-214z" />
    <glyph glyph-name="idot" horiz-adv-x="430" 
d="M162.5 604.5q-17.5 16.5 -17.5 45.5t17.5 45.5t47.5 16.5t47.5 -16.5t17.5 -45.5t-17.5 -45.5t-47.5 -16.5t-47.5 16.5z" />
    </font>
</defs>
</svg>
